ประยุกต์ใช้โพสล่าสุดโพสสำคัญเครื่องมือสมาชิกสถิติฟอรั่มธนาคารเหรียญ
หัวข้อ : [Mini-HD] The Lord Of The Rings(Trilogy 1-3)BluRay720p[ภาคไทย/อังกฤษ][ซับไทย]
ออฟไลน์
Rex
ระดับ: ระดับมัธยม
รายละเอียดผู้ใช้ 
หมวดหมู่ หนังฝรั่ง

[Mini-HD] The Lord Of The Rings(Trilogy 1-3)BluRay720p[ภาคไทย/อังกฤษ][ซับไทย]

ชอบกระทู้ไหนก็กดได้
ทั้ง Like และ +1 อัพเดท
ในหน้า Zeed5 Page ได้เลย


General
File size                        : 4.03 GiB
Duration                         : 2h 58mn
Overall bit rate                 : 3 232 Kbps

Video
ID                               : 1
Format                           : AVC
Duration                         : 2h 58mn
Bit rate                         : 2 400 Kbps
Frame rate                       : 23.976 fps
Stream size                      : 2.91 GiB (72%)

Audio #1
ID                               : 2
Format                           : AC-3
Codec ID                         : A_AC3
Duration                         : 2h 58mn
Bit rate                         : 384 Kbps
Stream size                      : 490 MiB (12%)
Title                            : AC-3

Audio #2
ID                               : 3
Format                           : AC-3
Codec ID                         : A_AC3
Duration                         : 2h 58mn
Bit rate                         : 448 Kbps
Stream size                      : 572 MiB (14%)
Title                            : thai By princo13
Language                         : Thai

Text #1
ID                               : 4
Format                           : VobSub
Codec ID                         : S_VOBSUB
Codec ID/Info                    : The same subtitle format used on DVDs
Title                            : thai By princo13
Language                         : Thai

Text #2
ID                               : 5
Format                           : UTF-8
Codec ID                         : S_TEXT/UTF8
Codec ID/Info                    : UTF-8 Plain Text
Title                            : Eng


เรื่องย่อ The Lord of the Rings 1 : The Fellowship of the Ring
The Lord of the Rings : The Fellowship of the Ring (2001)
อภินิหาร แหวนครองพิภพ
เป็นหนึ่งในบรรดานิยายแนว sci-fi ที่ถูกเขียนกันมากว่าศตวรรษ และยังไม่ได้ถูกดัดแปลงเป็นภาพยนตร์ เหตุผลสำคัญที่สุดก็คือ ความไม่พร้อมเทคโนโลยีในการสร้างสรรค์ภาพยนตร์ ยังไม่พร้อมเพียงพอ ที่จะรองรับจินตนาการสุดอลังการของโทลเคียนได้ จนกระทั่งเมื่อเวลาผ่านไป พร้อมกับความเจริญก้าวหน้าทางวิทยาการ ทำให้ในที่สุด นิยายมหากาพย์ไตรภาคชุดนี้ ถูกถ่ายทอดลงบนเป็นฟิล์มเป็นครั้งแรกจนได้The Lord of The Rings : The Fellowship of the Ring เป็นผลงานการกำกับภาพยนตร์โดย ปีเตอร์ แจ็คสัน ที่พ่วงหน้าที่เขียนบท และผู้อำนวยการสร้าง




The_Lord_Of_The_Rings_1(2001)BluRay720p_By_princo13.mkv.001
The_Lord_Of_The_Rings_1(2001)BluRay720p_By_princo13.mkv.002
The_Lord_Of_The_Rings_1(2001)BluRay720p_By_princo13.mkv.003
The_Lord_Of_The_Rings_1(2001)BluRay720p_By_princo13.mkv.004
The_Lord_Of_The_Rings_1(2001)BluRay720p_By_princo13.mkv.005
The_Lord_Of_The_Rings_1(2001)BluRay720p_By_princo13.mkv.006
The_Lord_Of_The_Rings_1(2001)BluRay720p_By_princo13.mkv.007
The_Lord_Of_The_Rings_1(2001)BluRay720p_By_princo13.mkv.008
The_Lord_Of_The_Rings_1(2001)BluRay720p_By_princo13.mkv.009
The_Lord_Of_The_Rings_1(2001)BluRay720p_By_princo13.mkv.010
The_Lord_Of_The_Rings_1(2001)BluRay720p_By_princo13.mkv.011
The_Lord_Of_The_Rings_1(2001)BluRay720p_By_princo13.mkv.012
The_Lord_Of_The_Rings_1(2001)BluRay720p_By_princo13.mkv.013
The_Lord_Of_The_Rings_1(2001)BluRay720p_By_princo13.mkv.014
The_Lord_Of_The_Rings_1(2001)BluRay720p_By_princo13.mkv.015
The_Lord_Of_The_Rings_1(2001)BluRay720p_By_princo13.mkv.016
The_Lord_Of_The_Rings_1(2001)BluRay720p_By_princo13.mkv.017
The_Lord_Of_The_Rings_1(2001)BluRay720p_By_princo13.mkv.018
The_Lord_Of_The_Rings_1(2001)BluRay720p_By_princo13.mkv.019
The_Lord_Of_The_Rings_1(2001)BluRay720p_By_princo13.mkv.020
The_Lord_Of_The_Rings_1(2001)BluRay720p_By_princo13.mkv.021

                                                  The Lord Of The Rings - The Two Towers



General

Format                           : Matroska
File size                        : 3.65 GiB
Duration                         : 2h 59mn
Overall bit rate                 : 2 913 Kbps

Video
ID                               : 1
Format                           : AVC
Codec ID                         : V_MPEG4/ISO/AVC
Duration                         : 2h 59mn
Bit rate                         : 2 400 Kbps
Width                            : 1 280 pixels
Height                           : 534 pixels
Scan type                        : Progressive
Stream size                      : 2.94 GiB (80%)

Audio #1
ID                               : 2
Format                           : AC-3
Duration                         : 2h 59mn
Bit rate                         : 384 Kbps
Stream size                      : 493 MiB (13%)
Title                            : AC-3

Audio #2
ID                               : 3
Format                           : MPEG Audio
Duration                         : 2h 59mn
Bit rate                         : 128 Kbps
Channel(s)                       : 2 channels
Stream size                      : 164 MiB (4%)
Title                            : thai By princo13
Language                         : Thai

Text #1
ID                               : 4
Format                           : VobSub
Codec ID                         : S_VOBSUB
Codec ID/Info                    : The same subtitle format used on DVDs
Title                            : thai By princo13
Language                         : Thai

Text #2
ID                               : 5
Format                           : UTF-8
Codec ID                         : S_TEXT/UTF8
Codec ID/Info                    : UTF-8 Plain Text
Title                            : Eng


    จากตอนจบของ The Fellowship of the Ring เหล่าพันธมิตรต้องสูญเสีย โบโรเมีย (รับบทโดย ฌอน บีน) และ แกนดาล์ฟ เดอะเกรย์ (รับบทโดย เอียน แมคเคลเลน) และพวกเขาต้องแยกจากกัน เป็น 3 กลุ่ม...โฟรโด แบ็กกิ้นส์ (รับบทโดย อไลจาห์ วู้ด) และ แซมไว้ส แกมกี้ (รับบทโดย ฌอน แอสติน) พบว่า ในขณะที่พวกเขาหลงทางอยู่ที่เนินเขาแห่ง อีมีน มิวล์ (Emyn Muil) พวกเขาถูกติดตามจาก กอลลั่ม (ให้เสียงพากย์โดย แอนดี้ เซอร์คิส) สัตว์ประหลาดลึกลับที่มีความเกี่ยวข้องกับแหวน กอลลั่มสัญญาที่จะพาสองฮ้อบบิท ไปสู่ประตูแห่งมอร์ดอร์ โดยมีเงื่อนไขว่า ทั้งสองจะต้องปล่อยตัวเขา แซมรู้สึกถึงความไม่น่าไว้วางใจ ของผู้ร่วมเดินทางใหม่ ในขณะที่โฟรโดกลับเวทนากอลลั่ม ผู้ที่มีเคยเผชิญชะตาชีวิต ดังเช่นเขาในขณะนี้ ณ ดินแดนมัฌชิมโลก (Middle Earth) อารากอร์น (รับบทโดย วิกโก้ มอร์เทนเซ่น), ลีโกลาส (รับทโดย ออร์แลนโด บลูม) กับ กิมลิ (รับบทโดย จอห์น รายส์ เดวี่ส์) ระหว่างการเดินทางสู่อาณาจักร โรฮาน ทั้งสามได้พบกับกองทัพโรแฮนบนอานม้า อารากอร์นได้ทราบข่าวจาก เอโอเมอร์ (รับบทโดย คาร์ล เออร์บาน) ว่ากษัตริย์แห่งโรแฮน นามว่า เธโอเดน (รับบทโดย เบอร์นาร์ด ฮิล) ได้ต้องมนต์ของซารูมาน และถูกหักหลังโดยที่ปรึกษาคนสนิทนามว่า เวิร์มธัง (รับบทโดย แบร้ด ดูริฟ) เอโอวิน (รับบทโดย มิรันดา ออตโต้) หลาน สาวแห่งกษัตริย์เธโอเดน เธอเป็นคนที่เข้มแข็ง และหลงใหลในตัวอารากอร์นอยู่ไม่น้อย แต่แม้อารากอร์นจะรู้สึกพึงพอใจในตัวเอโอวิน แต่หัวใจของอารากอร์นกลับอยู่ที่ริเวนเดล เมืองที่เขาเคยมีสัญญาใจกับ อาร์เวน (ลิฟ ไทเลอร์)แกนดาล์ฟกลับมาอีกครั้ง ในชุดคลุมกายขาวบริสุทธิ์ ไม่ใช่แกนดาล์ฟ เดอะเกรย์อีกต่อไปแล้ว แต่เป็น แกนดาล์ฟ เดอะไวท์ แทน มันชัดเจนว่าพลังของเขาฟื้นคืนมาใหม่อีกครั้ง เขากลับมาพร้อมกับจุดมุ่งหมายที่ชัดเจน เช่นเดียวกับซามูไร นอกจากนี้ เขายังมีความมุ่งมั่นต่อหน้าที่อีกด้วย ซึ่งมันได้นำความเป็นผู้นำ กลับมาสู่กลุ่มพันธมิตรอีกครั้ง ขณะที่ เมอร์รี่ (รับบทโดย โดมินิค โมเนแกน) และ พิพพิน (รับบทโดย บิลลี บอยด์) สองฮ้อบบิทที่ถูกพวกอุรุกไฮลักพาตัวไป เพราะคิดว่าทั้งสองคือผู้ถือแหวน หากพวกอุรุกไฮพาแมร์รี่และพิพพิน ไปส่งให้กับ ซารูแมนเดอะไว้ท์ (รับบทโดย คริสโตเฟอร์ ลี) ได้ เขาก็จะต้องพบว่า พวกเขาไม่ได้ครอบครองแหวน และเมื่อนั้น ทั้งสองก็จะต้องถูกฆ่า เเมร์รี่และพิพพิน ได้รับการช่วยเหลือ ให้รอดพ้นจากความตาย โดยต้นไม้ยักษ์เดินได้ที่มีชื่อว่า ทรีเบียร์ด ขณะที่โฟรโดและแซม กำลังหาทางเดินข้ามไปยังดินแดนของศัตรู กองกำลังอันชั่วร้าย ก็วางแผนที่จะเข้ายึดครองมิดเดิ้ลเอิร์ธ โดย ซารูแมน พ่อมดผู้มีจิตใจอำมหิต ได้ สร้างกองทัพ อุรุกไฮ (Uruk-Hai) ขึ้นมา กองทัพดังกล่าวเป็นเผ่าพันธุ์ออร์ค (Orcs) ที่มีความแข็งแกร่งและดุร้ายกว่า ซารูมานได้จับมือกับ ดาร์คลอร์ดซอรอน (ซาลา เบเคอร์) ซึ่ง ก็มีกองทัพของตัวเองเช่นกัน ภารกิจของซารูมาน คือส่งกองทัพอุรุกไฮของเขา เข้าบดขยี้อาณาจักรโรแฮนของเผ่าพันธุ์มนุษย์ หากเมืองโรแฮนถูกทำลาย ดาร์คลอร์ดซอรอน ก็สามารถส่งกองทัพ เข้าตีจุดที่ยังมีการต่อต้าน อย่างบางเบาจากเหล่ามนุษย์ได้ นั่นก็คือ กอนดอร์ บนเส้นขนานของการเดินทาง ที่เหล่าพันธมิตรต้องเผชิญหน้า กับเหล่ากองทัพศัตรูเหนือจินตนาการ เล่ห์กลอันแยบยล รวมทั้งความมหัศจรรย์ของต้นไม้โบราณ และ พลังกองทัพอันแข็งแกร่ง ด้วยกันทั้งหมด พวกเขาต้องลุกขึ้นเผชิญหน้ากับการต่อสู้ และดุลย์แห่งอำนาจ ได้เกิดการผลัดเปลี่ยนไปทั่วดินแดนมัฌชิมโลก สองหอคอยอันประกอบด้วย บาราด ดูร์ (Barad-dur) ซึ่งเป็นฐานที่มั่นของ ดาร์คลอร์ดซอรอน (ซาลา เบเคอร์) และ ออร์ธังค์ (Orthanc) ป้อมปราการของพ่อมด ซารูแมนเดอะไว้ท์ (รับบทโดย คริสโตเฟอร์ ลี) ที่สร้างกองทัพนับหมื่น เพื่อสงครามกับทุกชนเผ่า โดยมีจุดประสงค์ เพื่อล้างเผ่าพันธุ์มนุษย์ชาติ...




The_Lord_Of_The_Rings_2(2002)BluRay720p_By_princo13.mkv.001
The_Lord_Of_The_Rings_2(2002)BluRay720p_By_princo13.mkv.002
The_Lord_Of_The_Rings_2(2002)BluRay720p_By_princo13.mkv.003
The_Lord_Of_The_Rings_2(2002)BluRay720p_By_princo13.mkv.004
The_Lord_Of_The_Rings_2(2002)BluRay720p_By_princo13.mkv.005
The_Lord_Of_The_Rings_2(2002)BluRay720p_By_princo13.mkv.006
The_Lord_Of_The_Rings_2(2002)BluRay720p_By_princo13.mkv.007
The_Lord_Of_The_Rings_2(2002)BluRay720p_By_princo13.mkv.008
The_Lord_Of_The_Rings_2(2002)BluRay720p_By_princo13.mkv.009
The_Lord_Of_The_Rings_2(2002)BluRay720p_By_princo13.mkv.010
The_Lord_Of_The_Rings_2(2002)BluRay720p_By_princo13.mkv.011
The_Lord_Of_The_Rings_2(2002)BluRay720p_By_princo13.mkv.012
The_Lord_Of_The_Rings_2(2002)BluRay720p_By_princo13.mkv.013
The_Lord_Of_The_Rings_2(2002)BluRay720p_By_princo13.mkv.014
The_Lord_Of_The_Rings_2(2002)BluRay720p_By_princo13.mkv.015
The_Lord_Of_The_Rings_2(2002)BluRay720p_By_princo13.mkv.016
The_Lord_Of_The_Rings_2(2002)BluRay720p_By_princo13.mkv.017
The_Lord_Of_The_Rings_2(2002)BluRay720p_By_princo13.mkv.018
The_Lord_Of_The_Rings_2(2002)BluRay720p_By_princo13.mkv.019

หมายเหตุ สำหรับภาค 2 The Two Towers เสียงไทยจะเป็น MPEG Audio 2 ช่องนะคับ(ถ้าไม่ใช่หูผีจริงๆก็ฟังไม่ออกหรอก) เนื่องจากฉบับเสียงไทย AC-3 จะมีแต่ The Two Towers (EXTENDED) แต่ภาพไม่คมชัดสุดยอด ก็เลยอับตัวนี้ให้แทนคับ

                                             The Lord Of The Rings - The Return Of The King



General

Format                           : Matroska
File size                        : 4.54 GiB
Duration                         : 3h 21mn
Overall bit rate                 : 3 232 Kbps

Video
ID                               : 1
Format                           : AVC
Codec ID                         : V_MPEG4/ISO/AVC
Duration                         : 3h 21mn
Bit rate                         : 2 400 Kbps
Frame rate                       : 23.976 fps
Stream size                      : 3.28 GiB (72%)
Title                            : The Lord Of The Rings - The Return Of The King

Audio #1
ID                               : 2
Format                           : AC-3
Codec ID                         : A_AC3
Duration                         : 3h 21mn
Bit rate                         : 384 Kbps
Stream size                      : 552 MiB (12%)
Title                            : Eng AC3

Audio #2
ID                               : 3
Format                           : AC-3
Codec ID                         : A_AC3
Duration                         : 3h 21mn
Bit rate                         : 448 Kbps
Stream size                      : 644 MiB (14%)
Title                            : thai By princo13
Language                         : Thai

Text #1
ID                               : 4
Format                           : VobSub
Codec ID                         : S_VOBSUB
Codec ID/Info                    : The same subtitle format used on DVDs
Title                            : thai By princo132000
Language                         : Thai

Text #2
ID                               : 5
Format                           : UTF-8
Codec ID                         : S_TEXT/UTF8
Codec ID/Info                    : UTF-8 Plain Text
Title                            : Eng


                       การเดินทางของเหล่าพันธมิตรผู้กล้าแห่งวงแหวน กำลังจะถึงคราวสิ้นสุด พร้อมกับกองกำลังทมิฬแห่ง ดาร์คลอร์ด ซอรอน ที่ตราทัพเข้าสู่ที่มั่นสุดท้าย ไมนาสติริธ ไม่มีครั้งใดที่อาณาจักรที่ยิ่งใหญ่ จะต้องการการกลับมาของราชันย์มากกว่าครั้งนี้ แต่ความสงสัยในโชตชะตาของ อารากอร์น กลับเป็นสิ่งที่กีดกั้นหนทางสู่ราชบัลลังก์ แกนดาล์ฟ (เอียน แมคเคลเล่น) ได้พยายามรวบรวมไพร่พล และกองทัพที่แตกสลายขึ้นอีกครั้ง โดยร่วมกับทัพนักรบผู้กล้าของกษัตริย์ ธีโอเดน แห่ง โรแฮน (เบอร์นาร์ด ฮิลล์) ทว่าความหาญกล้า และจงรักภักดีจะมากมายสักเพียงไร ก็มิอาจจะต้านทานทัพศัตรูร้าย ที่พรั่งพรูเข้าสู่อาณาจักรในครั้งนี้ได้ และยิ่งหนทางที่ใกล้เข้าสู่ Mount Doom มากขึ้นเท่าใด โฟรโด (อีไลจาห์ วู้ด) และ แซม (ฌอน แอสติน) ก็ยิ่งตกอยู่ในความลำบากมากขึ้นเท่านั้น อำนาจแห่งแหวนเริ่มส่งผลต่อทุกย่างก้าวที่เดินไป กัดกร่อนความเป็นตัวตนที่แท้จริงของโฟรโด ในขณะเดียวกัน ก็สะท้อนให้เห็นถึงความเข้มแข็งของแซมอีกด้วย
ทุกชัยชนะที่ได้มาล้วนแลกด้วยการเสียสละ และแม้ว่าการสูญเสียจะยิ่งใหญ่สักเพียงใด เหล่ากองทัพแห่งพันธมิตร ก็ยังคงเดินหน้าสู่สมรภูมิครั้งยิ่งใหญ่ โดยมีปณิธานร่วมกัน ในการทำให้ ดาร์คลอร์ด ซอรอน ไขว้เขว และสร้างโอกาสให้แก่โฟรโด ได้ทำภารกิจอันยิ่งใหญ่ให้สิ้นสุดลง และท่ามกลางการเดินทางฝ่าดินแดนฝ่ายศัตรูที่สุดแสนอันตราย โฟรโดจำต้องเชื่อมั่นในตัวเพื่อนร่วมทางทั้งสอง นั่นคือ แซม และ กอลลั่ม (ให้เสียงพากย์โดย แอนดี้ เซอร์คิส) มากยิ่งขึ้น ในขณะเดียวกัน วงแหวนก็ยังคงทดสอบความสวามิภักดิ์ และมนุษยธรรมของเหล่าผู้กล้าแห่งตำนานต่อไป...




The_Lord_Of_The_Rings_3(2003)BluRay720p_By_princo13.mkv.001
The_Lord_Of_The_Rings_3(2003)BluRay720p_By_princo13.mkv.002
The_Lord_Of_The_Rings_3(2003)BluRay720p_By_princo13.mkv.003
The_Lord_Of_The_Rings_3(2003)BluRay720p_By_princo13.mkv.004
The_Lord_Of_The_Rings_3(2003)BluRay720p_By_princo13.mkv.005
The_Lord_Of_The_Rings_3(2003)BluRay720p_By_princo13.mkv.006
The_Lord_Of_The_Rings_3(2003)BluRay720p_By_princo13.mkv.007
The_Lord_Of_The_Rings_3(2003)BluRay720p_By_princo13.mkv.008
The_Lord_Of_The_Rings_3(2003)BluRay720p_By_princo13.mkv.009
The_Lord_Of_The_Rings_3(2003)BluRay720p_By_princo13.mkv.010
The_Lord_Of_The_Rings_3(2003)BluRay720p_By_princo13.mkv.011
The_Lord_Of_The_Rings_3(2003)BluRay720p_By_princo13.mkv.012
The_Lord_Of_The_Rings_3(2003)BluRay720p_By_princo13.mkv.013
The_Lord_Of_The_Rings_3(2003)BluRay720p_By_princo13.mkv.014
The_Lord_Of_The_Rings_3(2003)BluRay720p_By_princo13.mkv.015
The_Lord_Of_The_Rings_3(2003)BluRay720p_By_princo13.mkv.016
The_Lord_Of_The_Rings_3(2003)BluRay720p_By_princo13.mkv.017
The_Lord_Of_The_Rings_3(2003)BluRay720p_By_princo13.mkv.018
The_Lord_Of_The_Rings_3(2003)BluRay720p_By_princo13.mkv.019
The_Lord_Of_The_Rings_3(2003)BluRay720p_By_princo13.mkv.020
The_Lord_Of_The_Rings_3(2003)BluRay720p_By_princo13.mkv.021
The_Lord_Of_The_Rings_3(2003)BluRay720p_By_princo13.mkv.022
The_Lord_Of_The_Rings_3(2003)BluRay720p_By_princo13.mkv.023
The_Lord_Of_The_Rings_3(2003)BluRay720p_By_princo13.mkv.024

วิธีการรวมไฟล์.001,.002,.003ด้วยโปรแกรม hjsplit
การตั้งค่าโปรแกรม IDM ให้โหลดไฟล์ 001,002,003

                                                                99.99% NO PART ERROR

ให้คะแนนบทความประเภท โพสต์ ตามความรู้สึกคุณ

สุดยอด

เศร้า

น่าตลก

แฮปปี้

โกรธ

เบื่อ

ผวา
เพรชฆาตรปลิงดูด
ออฟไลน์
ระดับ: ระดับแรกเกิด
รายละเอียดผู้ใช้ 
ชอบกระทู้ไหนก็กดได้
ทั้ง Like และ +1 อัพเดท
ในหน้า Zeed5 Page ได้เลย
Part ที่ 3 , 4 , 5 ของ Load ภาค 1 โหลดมาแล้วไม่ได้ 200 MB รบกวนคุณ Princo 13 แก้ไขด้วยครับ
ขอบคุณครับ
ออฟไลน์
Rex
ระดับ: ระดับมัธยม
รายละเอียดผู้ใช้ 
สรุปตามนี้นะคับ อับให้ใหม่สำรองพาทที่โหลดไม่ผ่าน

The_Lord_Of_The_Rings_1

The_Lord_Of_The_Rings_1(2002)BluRay720p_By_princo13.mkv.011

The_Lord_Of_The_Rings_2

The_Lord_Of_The_Rings_2(2002)BluRay720p_By_princo13.mkv.011

The_Lord_Of_The_Rings_3

The_Lord_Of_The_Rings_3(2003)BluRay720p_By_princo13.mkv.013
The_Lord_Of_The_Rings_3(2003)BluRay720p_By_princo13.mkv.014

The_Lord_Of_The_Rings_3(2002)BluRay720p_By_princo13.mkv.015
The_Lord_Of_The_Rings_3(2002)BluRay720p_By_princo13.mkv.016

ปล.ถ้าพาทไหนโหลดไม่ผ่านให้โหลดใหม่หรื่อเปลี่ยนช่วงเวลาคับ ถ้าไม่ได้จริงๆเดี๋ยวผมอับให้ใหม่
โหลดแล้วรวมพาทหนังไม่จบ/ค้าง ให้ทำการเช็คพาทและขนาดไฟล์ว่ามาเต็มจำนวนมั้ย เช่น 23 พาท/200MB เพิ่มเติม 200MB = 204,800KB
เพรชฆาตรปลิงดูด
ออฟไลน์
ระดับ: ระดับมัธยม
รายละเอียดผู้ใช้ 
โหลดไม่ไหวแต่ก็ ขอบคุณมากๆนะครับ ใจดีจริงๆเลย
ออฟไลน์
ระดับ: ระดับแรกเกิด
รายละเอียดผู้ใช้ 
ขอบคุณมากๆเลยครับ หามานานนนน...
ออฟไลน์
ระดับ: ระดับแรกเกิด
รายละเอียดผู้ใช้ 
ขอบคุณครับที่มีนำ้ใจ เเต่จะกรุณา up mediafire ให้ก็ดีนะครับ หรือ duckload หรือ upload thai เว็บนี้โหลดยากครับ
รายละเอียด
กล่องตอบกลับด่วน

ถาม-ตอบ
ข้อความในภาพนี้เขียนว่าอะไร ? คำตอบคือ:ใช่เลย
กด "Ctrl+Enter" เพื่อตั้งกระทู้ได้
ถอยกลับถัดไป